Jump to content

How to change starting movies


modexpert

Recommended Posts

1. Convert your video into "Mpg",

2. name it GTAtitles.mpg

3. Past it in Movies/ folder

 

 

Good Luck icon14.gif

Link to comment
Share on other sites

1. Convert your video into "Mpg",

2. name it GTAtitles.mpg

3. Past it in Movies/ folder

 

 

Good Luck icon14.gif

I recommend AVS Video converter. When i edited or better to say, created new intro movie, i used settings which resulted just like below, and movie is playable with no problem on Win7 with updated codecs pack

 

GeneralComplete name                  : E:\Grand Theft Auto Vice City\movies\Logo.mpgFormat                         : MPEG-PSFile size                      : 6.21 MiBDuration                       : 12s 246msOverall bit rate               : 4 256 KbpsVideoID                             : 224 (0xE0)Format                         : MPEG VideoFormat version                 : Version 2Format profile                 : Main@High 1440Format settings, BVOP          : YesFormat settings, Matrix        : DefaultFormat settings, GOP           : M=3, N=15Duration                       : 12s 246msBit rate                       : 3 947 KbpsMaximum bit rate               : 4 000 KbpsWidth                          : 1 280 pixelsHeight                         : 1 024 pixelsDisplay aspect ratio           : 4:3Frame rate                     : 29.970 fpsColor space                    : YUVChroma subsampling             : 4:2:0Bit depth                      : 8 bitsScan type                      : ProgressiveCompression mode               : LossyBits/(Pixel*Frame)             : 0.100Stream size                    : 5.76 MiB (93%)AudioID                             : 192 (0xC0)Format                         : MPEG AudioFormat version                 : Version 1Format profile                 : Layer 3Duration                       : 12s 173msBit rate mode                  : ConstantBit rate                       : 224 KbpsChannel(s)                     : 2 channelsSampling rate                  : 44.1 KHzCompression mode               : LossyDelay relative to video        : 26msStream size                    : 333 KiB (5%)

 

 

Link to comment
Share on other sites

  • 9 years later...

Create an account or sign in to comment

You need to be a member in order to leave a comment

Create an account

Sign up for a new account in our community. It's easy!

Register a new account

Sign in

Already have an account? Sign in here.

Sign In Now
  • 1 User Currently Viewing
    0 members, 0 Anonymous, 1 Guest

×
×
  • Create New...

Important Information

By using GTAForums.com, you agree to our Terms of Use and Privacy Policy.